Titolo: Unfriended
Nazione: USA, Russia
Anno: 2014
Genere: Horror, Mystery, Thriller
Durata: 83 min
Regia: Levan Gabriadze
Cast: Heather Sossaman, Matthew Bohrer, Courtney Halverson, Shelley Hennig, Moses Storm, Will Peltz, Renee Olstead, Jacob Wysocki, Mickey River, Cal Barnes, Christa Hartsock, Anthony Eftimeo, Tony Hernandez, Konstantin Khabenskiy, Denis Lyons


Durante una video chat notturna, sei amici del liceo ricevono un messaggio di Skype da una compagna di classe che si uccisa esattamente un anno prima. Inizialmente pensano che si tratti di uno scherzo, ma poi si rendono conto che hanno a che fare con qualcosa che non fa parte di questo mondo, qualcosa che li vuole morti.

Nome Versione: PirateMKV
Fonte Video: BluRay
Fonte Audio: iTunes



 






 

General
Unique ID : 186132097932391109833789640925866310260 (0x8C07BCF440076A08A0E75F4843E33A74)
Complete name : L:\Download\unfriended\Unfriended (2014) BDRip 720p HEVC ITA ENG AC3 ITA ENG Sub PirateMKV.mkv
Format : Matroska
Format version : Version 4 / Version 2
File size : 1.24 GiB
Duration : 1h 22mn
Overall bit rate : 2 154 Kbps
Movie name : Unfriended (2014) - PirateMKV
Encoded date : UTC 2015-10-19 11:38:53
Writing application : mkvmerge v8.5.0 ('Vanishing Act') 64bit
Writing library : Lavf57.0.100
DURATION : 01:15:52.089000000
NUMBER_OF_FRAMES : 1249
NUMBER_OF_BYTES : 39322
_STATISTICS_WRITING_APP : mkvmerge v8.5.0 ('Vanishing Act') 64bit
_STATISTICS_WRITING_DATE_UTC : 2015-10-19 11:38:53
_STATISTICS_TAGS : BPS DURATION NUMBER_OF_FRAMES NUMBER_OF_BYTES

Video
ID : 1
Format : HEVC
Format/Info : High Efficiency Video Coding
Format profile : Main@L4@Main
Codec ID : V_MPEGH/ISO/HEVC
Duration : 1h 22mn
Bit rate : 1 087 Kbps
Width : 1 280 pixels
Height : 720 pixels
Display aspect ratio : 16:9
Frame rate mode : Constant
Frame rate : 23.976 fps
Color space : YUV
Chroma subsampling : 4:2:0
Bit depth : 8 bits
Bits/(Pixel*Frame) : 0.049
Stream size : 643 MiB (50%)
Title : Unfriended (2014) - PirateMKV
Writing library : x265 1.7:[Windows][GCC 4.9.2][64 bit]
Encoding settings : wpp / ctu=64 / min-cu-size=8 / max-tu-size=32 / tu-intra-depth=3 / tu-inter-depth=3 / me=2 / subme=4 / merange=57 / no-rect / no-amp / max-merge=3 / temporal-mvp / no-early-skip / rdpenalty=0 / no-tskip / no-tskip-fast / strong-intra-smoothing / no-lossless / no-cu-lossless / no-constrained-intra / fast-intra / open-gop / no-temporal-layers / interlace=0 / keyint=250 / min-keyint=23 / scenecut=40 / rc-lookahead=40 / lookahead-slices=0 / bframes=8 / bframe-bias=0 / b-adapt=2 / ref=5 / weightp / weightb / aq-mode=1 / aq-strength=2.00 / cbqpoffs=0 / crqpoffs=0 / rd=4 / psy-rd=1.00 / rdoq-level=0 / psy-rdoq=0.00 / signhide / deblock=-1:-1 / sao / no-sao-non-deblock / b-pyramid / cutree / rc=crf / crf=18.0 / qcomp=0.60 / qpmin=0 / qpmax=51 / qpstep=4 / ipratio=1.40 / pbratio=1.30
Language : English
Default : Yes
Forced : No
Color range : Limited
DURATION : 01:22:38.996000000
NUMBER_OF_FRAMES : 118897
NUMBER_OF_BYTES : 700322458
_STATISTICS_WRITING_APP : mkvmerge v8.5.0 ('Vanishing Act') 64bit
_STATISTICS_WRITING_DATE_UTC : 2015-10-19 11:38:53
_STATISTICS_TAGS : BPS DURATION NUMBER_OF_FRAMES NUMBER_OF_BYTES

Audio #1
ID : 2
Format : AC-3
Format/Info : Audio Coding 3
Mode extension : CM (complete main)
Format settings, Endianness : Big
Codec ID : A_AC3
Duration : 1h 22mn
Bit rate mode : Constant
Bit rate : 384 Kbps
Channel(s) : 6 channels
Channel positions : Front: L C R, Side: L R, LFE
Sampling rate : 48.0 KHz
Compression mode : Lossy
Stream size : 227 MiB (18%)
Title : AC3 5.1 (iTunes ReSync)
Language : Italian
Default : Yes
Forced : No

Audio #2
ID : 3
Format : AC-3
Format/Info : Audio Coding 3
Mode extension : CM (complete main)
Format settings, Endianness : Big
Codec ID : A_AC3
Duration : 1h 22mn
Bit rate mode : Constant
Bit rate : 640 Kbps
Channel(s) : 6 channels
Channel positions : Front: L C R, Side: L R, LFE
Sampling rate : 48.0 KHz
Compression mode : Lossy
Stream size : 379 MiB (30%)
Title : AC3 5.1
Language : English
Default : No
Forced : No

Text #1
ID : 4
Format : UTF-8
Codec ID : S_TEXT/UTF8
Codec ID/Info : UTF-8 Plain Text
Title : Forced
Language : Italian
Default : Yes
Forced : Yes

Text #2
ID : 5
Format : UTF-8
Codec ID : S_TEXT/UTF8
Codec ID/Info : UTF-8 Plain Text
Title : SDH
Language : English
Default : No
Forced : No






** Contenuto Nascosto: Schiaccia il bottone RINGRAZIA per visualizzare i link **




** Contenuto Nascosto: Schiaccia il bottone RINGRAZIA per visualizzare i link **


Password: 21K.AUDIO21KDFD87EWF8E