CD 1
Time: 01:07:37
01. Gibson Brothers - Que sera mi vida - 04:00
02. Gary Low - La Colegiala - 03:00
03. Jose Himenes - Y Viva Espana - 03:46
04. Santana - Jingo - 02:51
05. La Bionda - Bandido - 04:26
06. Georgie Dann - El bimbo - 02:37
07. Gloria Estefan - Turn the beat around - 03:54
08. Ottmar Liebert and Luna Negra - Havana Club (The Latin Mix) - 05:19
09. Roberto Seto y su Rumberos - Brigitte Bardot (Mono Version) - 02:22
10. Los Garcias - Ali baba - 04:45
11. Garibaldi - Que te la pongo - 03:11
12. Angel Pato Garcia - Porque sera - 03:11
13. Ottawan - Hands up - 03:49
14. Eddie and the Soul band - Soul cha-cha - 03:20
15. Paco Lorente - Batucada - 02:38
16. Kid Creole and the Coconuts - Me no pop I - 04:23
17. America Latina - Ballando Ballando - 03:35
18. Celina Gonzales - Camina Y ven - 03:18
19. Baden Powell - Manha de Carnival - 03:12

CD 2
Time: 01:11:18
01. Regheira - Vamos a la Playa - 03:41
02. Los Manolos - All my Loving - 03:13
03. Wham - Club Troana - 04:31
04. Arrow - O'la Soca - 03:59
05. Georgie Dann - Brasilia Carnaval - 03:01
06. Santa Esmeralda - The House Of the Rising Sun - 05:06
07. Gloria Estefan - Oye mi Canto - 04:57
08. Quincy Jones - Soul Bossa Nova - 02:45
09. Antonio Carlos Jobim - Favela - 03:22
10. Wes Montgomery - Tequila - 03:20
11. Sergio Mendes - Carnaval - 03:51
12. Andres Mendoza - La Cucaracha - 02:39
13. Azucar Moreno - El Amore - 04:53
14. Perez Prado - Mambo no 8 - 02:06
15. Stan Getz & Charlie Byrd - Desafinado - 05:51
16. Marcos Valle - Crickets Sing For Anamaria - 02:10
17. Luiz Henrique - Minha Lagoa - 02:55
18. C+C Music Factory - Robi-Rob's Boriqua Anthem - 08:58

CD 3
Time: 01:14:18
01. Santa Esmaralda - Don't Let me be misunderstood - 04:13
02. Gipsy Rumba - Amor de mis Amores - 04:17
03. Peter Allen - I Go to Rio - 03:18
04. Gibson Brothers - Cuba - 04:34
05. Santana - Oye Como Va - 04:18
06. Bambuco - Ritmo de la Noche - 03:46
07. Ottawan - You're OK - 04:31
08. Kid Creote & The Coconuts - Annie I'm not your Daddy - 03:49
09. Cuco Sanchez - Paloma Bianca - 03:30
10. Miami Sound Machine - Jambala - 03:23
11. The Blackout All Stars - I Like it - 03:49
12. Perez Prado - Patricia - 02:09
13. Peret - Borriquito - 03:36
14. Georgie Dann - Campesino - 03:28
15. Stan Getz & Astrud Gilberto - The Girl From Ipanema - 05:14
16. Les Chakachas - Eso es el Amore - 02:50
17. As meninas - Per Quello che non ho - 03:42
18. Azuquita - Para Bailar - 03:11
19. La Companie Creole - C'Est Bon Pour Le Moral - 04:01
20. Sergio Mendes - Mais Que Nada (Ma-Sh Kay Nada) - 02:39

CD 4
Time: 01:14:50
01. Gipsy Kings - Medley - 04:49
02. Georgie Dann - El Cumbachero - 02:34
03. Righeira - No Tengo Dinero - 03:47
04. Ottawan - D.I.S.C.O - 03:35
05. Gloria Estefan - Conga - 04:16
06. La Bionda - One for you one for me - 03:35
07. Candido - Jingo - 03:22
08. Chico Balancao - Maracana - 04:07
09. Gipsy Vagabonds - Boxeador - 04:05
10. Los Fabulosos Cadillacs - El Matador - 04:36
11. Jim Carrey - Cuban pete - 03:34
12. Lucia - Marinero - 04:12
13. Los Manolos - Amigos para siempre - 04:24
14. Kid Creole and the Coconuts - My Male Curiosity - 04:41
15. Marie Claire D' Ubaldo - The Rhythm is magic - 04:04
16. Xavier Cugat - La cumparsita - 03:30
17. Kassav - Soleil - 03:42
18. Caribaldi - Hot mix - 07:57


Log

 
Exact Audio Copy V0.99 prebeta 5 from 4. May 2009

EAC extraction logfile from 15. January 2011, 4:11

COLLECTION / LATIN DANCE COLLECTION

Used drive : HL-DT-STDVDRAM GH10N Adapter: 1 ID: 0

Read mode : Secure
Utilize accurate stream : Yes
Defeat audio cache : Yes
Make use of C2 pointers : No

Read offset correction : 667
Overread into Lead-In and Lead-Out : No
Fill up missing offset samples with silence : Yes
Delete leading and trailing silent blocks : No
Null samples used in CRC calculations : Yes
Used interface : Native Win32 interface for Win NT & 2000

Used output format : User Defined Encoder
Selected bitrate : 896 kBit/s
Quality : High
Add ID3 tag : No
Command line compressor : C:\Program Files\FLAC\flac.exe
Additional command line options : -V -5 -T "artist=%a" -T "title=%t" -T "album=%g" -T "date=%y" -T "tracknumber=%n" -T "genre=%m" -5 %s


TOC of the extracted CD

Track | Start | Length | Start sector | End sector
---------------------------------------------------------
1 | 0:00.00 | 4:00.52 | 0 | 18051
2 | 4:00.52 | 3:00.13 | 18052 | 31564
3 | 7:00.65 | 3:46.70 | 31565 | 48584
4 | 10:47.60 | 2:51.42 | 48585 | 61451
5 | 13:39.27 | 4:26.73 | 61452 | 81474
6 | 18:06.25 | 2:37.32 | 81475 | 93281
7 | 20:43.57 | 3:54.33 | 93282 | 110864
8 | 24:38.15 | 5:19.55 | 110865 | 134844
9 | 29:57.70 | 2:22.07 | 134845 | 145501
10 | 32:20.02 | 4:45.35 | 145502 | 166911
11 | 37:05.37 | 3:11.33 | 166912 | 181269
12 | 40:16.70 | 3:11.15 | 181270 | 195609
13 | 43:28.10 | 3:49.17 | 195610 | 212801
14 | 47:17.27 | 3:20.03 | 212802 | 227804
15 | 50:37.30 | 2:38.27 | 227805 | 239681
16 | 53:15.57 | 4:23.60 | 239682 | 259466
17 | 57:39.42 | 3:35.25 | 259467 | 275616
18 | 61:14.67 | 3:18.10 | 275617 | 290476
19 | 64:33.02 | 3:13.18 | 290477 | 304969


Range status and errors