HomePage - Come attivare il proprio account - Regole del Forum

HOT NEWS!!!

Bon Jovi - New Jersey [Super Deluxe Edition] (2014) .Flac

Suicide Squad (2016)


Un ente governativo segreto gestito da Amanda Waller e chiamato Argus, crea una task force composta da terribili criminali. A loro vengono assegnati compiti pericolosi da portare a termine. In cambio la promessa di ottenere la clemenza per le loro pene detentive.


1080p
720p
UNTOUCHED-1080p
BLURAY FULL
BLURAY FULL 3D
Bon Jovi - New Jersey [Super Deluxe Edition] (2014) .Flac
Risultati da 1 a 4 di 4
  1. #1
    Status
    Offline
    L'avatar di Scene.Man
    Data Registrazione

    10.07.2014

    Messaggi

    1,091

    Ha ringraziato
    1 volte
    Ha Ricevuto 27,423 ringraziamenti in 1,024 discussioni volte
    Taggato
    0 Post(s)

    Bon Jovi - New Jersey [Super Deluxe Edition] (2014) .Flac



    Bon Jovi - New Jersey (Super Deluxe Edition) (2014)
    1 CD | Tracks: 12 | Flac, Track+.cue | Genre: Hard Rock
    Size: 964 mb | Front |


    Tracklist:
    CD1:
    01. Lay Your Hands On Me
    02. Bad Medicine
    03. Born To Be My Baby
    04. Living In Sin
    05. Blood On Blood
    06. Homebound Train
    07. Wild Is The Wind
    08. Ride Cowboy Ride
    09. Stick To Your Guns
    10. I'll Be There For You
    11. 99 In The Shade
    12. Love For Sale
    13. The Boys Are Back In Town
    14. Love Is War
    15. Born To Be My Baby (Acoustic Version)

    CD2:
    16. Homebound Train (Demo)
    17. Judgement Day (Demo)
    18. Full Moon High (Demo)
    19. Growing Up the Hard Way (Demo)
    20. Let's Make It Baby (Demo)
    21. Love Hurts (Demo)
    22. Backdoor To Heaven (Demo)
    23. Now and Forever (Demo)
    24. Wild Is the Wind (Demo)
    25. Stick To Your Guns (Demo)
    26. House of Fire (Demo)
    27. Does Anybody Really Fall In Love Anymore? (Demo)
    28. Diamond Ring (Demo)

    .Log:
     

    X Lossless Decoder version 20140504 (147.0)

    XLD extraction logfile from 2014-07-01 14:19:19 +0200

    Bon Jovi / New Jersey

    Used drive : HL-DT-ST DVDRW GX40N (revision RQ00)
    Media type : Pressed CD

    Ripper mode : XLD Secure Ripper
    Disable audio cache : OK for the drive with a cache less than 1375KiB
    Make use of C2 pointers : NO
    Read offset correction : 6
    Max retry count : 100
    Gap status : Analyzed, Appended

    TOC of the extracted CD
    Track | Start | Length | Start sector | End sector
    ---------------------------------------------------------
    1 | 00:00:00 | 05:58:57 | 0 | 26906
    2 | 05:58:57 | 05:16:53 | 26907 | 50659
    3 | 11:15:35 | 04:40:08 | 50660 | 71667
    4 | 15:55:43 | 04:39:04 | 71668 | 92596
    5 | 20:34:47 | 06:16:54 | 92597 | 120850
    6 | 26:51:26 | 05:10:50 | 120851 | 144150
    7 | 32:02:01 | 05:08:73 | 144151 | 167323
    8 | 37:10:74 | 01:24:71 | 167324 | 173694
    9 | 38:35:70 | 04:45:30 | 173695 | 195099
    10 | 43:21:25 | 05:46:44 | 195100 | 221093
    11 | 49:07:69 | 04:29:67 | 221094 | 241335
    12 | 53:37:61 | 04:01:59 | 241336 | 259469
    13 | 57:39:45 | 04:05:14 | 259470 | 277858
    14 | 61:44:59 | 04:14:52 | 277859 | 296960
    15 | 65:59:36 | 04:53:48 | 296961 | 318983

    AccurateRip Summary
    Disc not found in AccurateRip DB.

    All Tracks
    Album gain : -8.71 dB
    Peak : 0.993988
    Statistics
    Read error : 0
    Jitter error (maybe fixed) : 0
    Retry sector count : 0
    Damaged sector count : 0

    Track 01
    Filename : /Users/Rik/Desktop/Bon Jovi - New Jersey (2014) [FLAC]/01 Lay Your Hands On Me.flac
    Pre-gap length : 00:02:00

    Track gain : -8.86 dB
    Peak : 0.993988
    CRC32 hash (test run) : DC3EAE6C
    CRC32 hash : DC3EAE6C
    CRC32 hash (skip zero) : 60F7380F
    AccurateRip v1 signature : 94BCC953
    AccurateRip v2 signature : 5CA9AE6C
    ->Track not present in AccurateRip database.
    Statistics
    Read error : 0
    Jitter error (maybe fixed) : 0
    Retry sector count : 0
    Damaged sector count : 0

    Track 02
    Filename : /Users/Rik/Desktop/Bon Jovi - New Jersey (2014) [FLAC]/02 Bad Medicine.flac

    Track gain : -9.51 dB
    Peak : 0.993988
    CRC32 hash (test run) : 7ECFFED1
    CRC32 hash : 7ECFFED1
    CRC32 hash (skip zero) : EBDB2725
    AccurateRip v1 signature : F0BCF4EA
    AccurateRip v2 signature : B958DE8C
    ->Track not present in AccurateRip database.
    Statistics
    Read error : 0
    Jitter error (maybe fixed) : 0
    Retry sector count : 0
    Damaged sector count : 0

    Track 03
    Filename : /Users/Rik/Desktop/Bon Jovi - New Jersey (2014) [FLAC]/03 Born To Be My Baby.flac

    Track gain : -8.63 dB
    Peak : 0.993988
    CRC32 hash (test run) : 8AF06273
    CRC32 hash : 8AF06273
    CRC32 hash (skip zero) : 094247B5
    AccurateRip v1 signature : 1B9362D8
    AccurateRip v2 signature : 80F5EFF4
    ->Track not present in AccurateRip database.
    Statistics
    Read error : 0
    Jitter error (maybe fixed) : 0
    Retry sector count : 0
    Damaged sector count : 0

    Track 04
    Filename : /Users/Rik/Desktop/Bon Jovi - New Jersey (2014) [FLAC]/04 Living In Sin.flac

    Track gain : -6.63 dB
    Peak : 0.993988
    CRC32 hash (test run) : D1A79404
    CRC32 hash : D1A79404
    CRC32 hash (skip zero) : 86608A75
    AccurateRip v1 signature : 88BEC8A3
    AccurateRip v2 signature : B8F59625
    ->Track not present in AccurateRip database.
    Statistics
    Read error : 0
    Jitter error (maybe fixed) : 0
    Retry sector count : 0
    Damaged sector count : 0

    Track 05
    Filename : /Users/Rik/Desktop/Bon Jovi - New Jersey (2014) [FLAC]/05 Blood On Blood.flac

    Track gain : -8.67 dB
    Peak : 0.993988
    CRC32 hash (test run) : 26D4B385
    CRC32 hash : 26D4B385
    CRC32 hash (skip zero) : BC71C1EA
    AccurateRip v1 signature : F4334F44
    AccurateRip v2 signature : 8454774B
    ->Track not present in AccurateRip database.
    Statistics
    Read error : 0
    Jitter error (maybe fixed) : 0
    Retry sector count : 0
    Damaged sector count : 0

    Track 06
    Filename : /Users/Rik/Desktop/Bon Jovi - New Jersey (2014) [FLAC]/06 Homebound Train.flac

    Track gain : -8.64 dB
    Peak : 0.993988
    CRC32 hash (test run) : 2FD0391B
    CRC32 hash : 2FD0391B
    CRC32 hash (skip zero) : 6CCF2615
    AccurateRip v1 signature : AC687402
    AccurateRip v2 signature : 4D442B01
    ->Track not present in AccurateRip database.
    Statistics
    Read error : 0
    Jitter error (maybe fixed) : 0
    Retry sector count : 0
    Damaged sector count : 0

    Track 07
    Filename : /Users/Rik/Desktop/Bon Jovi - New Jersey (2014) [FLAC]/07 Wild Is The Wind.flac

    Track gain : -8.74 dB
    Peak : 0.993988
    CRC32 hash (test run) : 0283B505
    CRC32 hash : 0283B505
    CRC32 hash (skip zero) : 4432DCB6
    AccurateRip v1 signature : 872F00BF
    AccurateRip v2 signature : 8B652C56
    ->Track not present in AccurateRip database.
    Statistics
    Read error : 0
    Jitter error (maybe fixed) : 0
    Retry sector count : 0
    Damaged sector count : 0

    Track 08
    Filename : /Users/Rik/Desktop/Bon Jovi - New Jersey (2014) [FLAC]/08 Ride Cowboy Ride.flac

    Track gain : 3.99 dB
    Peak : 0.971283
    CRC32 hash (test run) : F94FC1D2
    CRC32 hash : F94FC1D2
    CRC32 hash (skip zero) : 7490533B
    AccurateRip v1 signature : E9AFC5FC
    AccurateRip v2 signature : 14A48353
    ->Track not present in AccurateRip database.
    Statistics
    Read error : 0
    Jitter error (maybe fixed) : 0
    Retry sector count : 0
    Damaged sector count : 0

    Track 09
    Filename : /Users/Rik/Desktop/Bon Jovi - New Jersey (2014) [FLAC]/09 Stick To Your Guns.flac

    Track gain : -8.46 dB
    Peak : 0.993988
    CRC32 hash (test run) : 548CC645
    CRC32 hash : 548CC645
    CRC32 hash (skip zero) : 26EF09F5
    AccurateRip v1 signature : 007841C8
    AccurateRip v2 signature : 52E77157
    ->Track not present in AccurateRip database.
    Statistics
    Read error : 0
    Jitter error (maybe fixed) : 0
    Retry sector count : 0
    Damaged sector count : 0

    Track 10
    Filename : /Users/Rik/Desktop/Bon Jovi - New Jersey (2014) [FLAC]/10 I'll Be There For You.flac

    Track gain : -8.36 dB
    Peak : 0.993988
    CRC32 hash (test run) : 74DCC64C
    CRC32 hash : 74DCC64C
    CRC32 hash (skip zero) : 89B8DC25
    AccurateRip v1 signature : A40DC2FA
    AccurateRip v2 signature : F4FC6C55
    ->Track not present in AccurateRip database.
    Statistics
    Read error : 0
    Jitter error (maybe fixed) : 0
    Retry sector count : 0
    Damaged sector count : 0

    Track 11
    Filename : /Users/Rik/Desktop/Bon Jovi - New Jersey (2014) [FLAC]/11 99 In The Shade.flac

    Track gain : -9.03 dB
    Peak : 0.993988
    CRC32 hash (test run) : A80284E6
    CRC32 hash : A80284E6
    CRC32 hash (skip zero) : 1D44788B
    AccurateRip v1 signature : 95C79062
    AccurateRip v2 signature : 2C3793BD
    ->Track not present in AccurateRip database.
    Statistics
    Read error : 0
    Jitter error (maybe fixed) : 0
    Retry sector count : 0
    Damaged sector count : 0

    Track 12
    Filename : /Users/Rik/Desktop/Bon Jovi - New Jersey (2014) [FLAC]/12 Love For Sale.flac

    Track gain : -3.03 dB
    Peak : 0.993988
    CRC32 hash (test run) : C2A60947
    CRC32 hash : C2A60947
    CRC32 hash (skip zero) : A950E601
    AccurateRip v1 signature : 99DEEF99
    AccurateRip v2 signature : 50567896
    ->Track not present in AccurateRip database.
    Statistics
    Read error : 0
    Jitter error (maybe fixed) : 0
    Retry sector count : 0
    Damaged sector count : 0

    Track 13
    Filename : /Users/Rik/Desktop/Bon Jovi - New Jersey (2014) [FLAC]/13 The Boys Are Back In Town.flac

    Track gain : -8.28 dB
    Peak : 0.993988
    CRC32 hash (test run) : 40725962
    CRC32 hash : 40725962
    CRC32 hash (skip zero) : 931276DE
    AccurateRip v1 signature : 353A819C
    AccurateRip v2 signature : F4819E9C
    ->Track not present in AccurateRip database.
    Statistics
    Read error : 0
    Jitter error (maybe fixed) : 0
    Retry sector count : 0
    Damaged sector count : 0

    Track 14
    Filename : /Users/Rik/Desktop/Bon Jovi - New Jersey (2014) [FLAC]/14 Love Is War.flac

    Track gain : -9.53 dB
    Peak : 0.993988
    CRC32 hash (test run) : BE0E07A0
    CRC32 hash : BE0E07A0
    CRC32 hash (skip zero) : AE11B522
    AccurateRip v1 signature : 59E7860C
    AccurateRip v2 signature : 7B9C06B3
    ->Track not present in AccurateRip database.
    Statistics
    Read error : 0
    Jitter error (maybe fixed) : 0
    Retry sector count : 0
    Damaged sector count : 0

    Track 15
    Filename : /Users/Rik/Desktop/Bon Jovi - New Jersey (2014) [FLAC]/15 Born To Be My Baby [Acoustic Version].flac

    Track gain : -5.49 dB
    Peak : 0.983643
    CRC32 hash (test run) : A75EDA10
    CRC32 hash : A75EDA10
    CRC32 hash (skip zero) : 226C98EF
    AccurateRip v1 signature : 30545670
    AccurateRip v2 signature : 560ACEF5
    ->Track not present in AccurateRip database.
    Statistics
    Read error : 0
    Jitter error (maybe fixed) : 0
    Retry sector count : 0
    Damaged sector count : 0

    No errors occurred

    End of status report

    -----BEGIN XLD SIGNATURE-----
    Jplw76Ur_Oaynt7lBXmymgyTx45.D51YaZ3Iu7yJx06a6N35GH LhYHpEjWrsAAQu4TZQrWWtEVfxZBWsz6uMDTcp3TffbXxkoCtI ede
    -----END XLD SIGNATURE-----


    .Cue:
     

    TITLE "New Jersey"
    PERFORMER "Bon Jovi"
    CATALOG 0602537891245
    REM GENRE "Metal"
    REM DATE "2014"
    REM DISCNUMBER 1
    REM TOTALDISCS 2
    REM DISCID D4109D0F
    REM REPLAYGAIN_ALBUM_GAIN -8.71 dB
    REM REPLAYGAIN_ALBUM_PEAK 0.993988
    FILE "01 Lay Your Hands On Me.flac" WAVE
    TRACK 01 AUDIO
    TITLE "Lay Your Hands On Me"
    SONGWRITER "Richie Sambora/Jon Bon Jovi"
    ISRC USPR39402223
    REM REPLAYGAIN_TRACK_GAIN -8.86 dB
    REM REPLAYGAIN_TRACK_PEAK 0.993988
    INDEX 01 00:00:00
    FILE "02 Bad Medicine.flac" WAVE
    TRACK 02 AUDIO
    TITLE "Bad Medicine"
    SONGWRITER "Jon Bon Jovi/Desmond Child/Richie Sambora"
    ISRC USPR39402228
    REM REPLAYGAIN_TRACK_GAIN -9.51 dB
    REM REPLAYGAIN_TRACK_PEAK 0.993988
    INDEX 01 00:00:00
    FILE "03 Born To Be My Baby.flac" WAVE
    TRACK 03 AUDIO
    TITLE "Born To Be My Baby"
    SONGWRITER "Richie Sambora/Jon Bon Jovi/Desmond Child"
    ISRC USPR38800037
    REM REPLAYGAIN_TRACK_GAIN -8.63 dB
    REM REPLAYGAIN_TRACK_PEAK 0.993988
    INDEX 01 00:00:00
    FILE "04 Living In Sin.flac" WAVE
    TRACK 04 AUDIO
    TITLE "Living In Sin"
    SONGWRITER "Jon Bon Jovi"
    ISRC USPR38800038
    REM REPLAYGAIN_TRACK_GAIN -6.63 dB
    REM REPLAYGAIN_TRACK_PEAK 0.993988
    INDEX 01 00:00:00
    FILE "05 Blood On Blood.flac" WAVE
    TRACK 05 AUDIO
    TITLE "Blood On Blood"
    SONGWRITER "Richie Sambora/Desmond Child/Jon Bon Jovi"
    ISRC USPR38800039
    REM REPLAYGAIN_TRACK_GAIN -8.67 dB
    REM REPLAYGAIN_TRACK_PEAK 0.993988
    INDEX 01 00:00:00
    FILE "06 Homebound Train.flac" WAVE
    TRACK 06 AUDIO
    TITLE "Homebound Train"
    SONGWRITER "Jon Bon Jovi/Richie Sambora"
    ISRC USPR38800040
    REM REPLAYGAIN_TRACK_GAIN -8.64 dB
    REM REPLAYGAIN_TRACK_PEAK 0.993988
    INDEX 01 00:00:00
    FILE "07 Wild Is The Wind.flac" WAVE
    TRACK 07 AUDIO
    TITLE "Wild Is The Wind"
    SONGWRITER "Jon Bon Jovi/Desmond Child/Diane Warren/Richie Sambora"
    ISRC USPR38800041
    REM REPLAYGAIN_TRACK_GAIN -8.74 dB
    REM REPLAYGAIN_TRACK_PEAK 0.993988
    INDEX 01 00:00:00
    FILE "08 Ride Cowboy Ride.flac" WAVE
    TRACK 08 AUDIO
    TITLE "Ride Cowboy Ride"
    SONGWRITER "King Of Swing/Captain Kidd"
    ISRC USPR38800042
    REM REPLAYGAIN_TRACK_GAIN 3.99 dB
    REM REPLAYGAIN_TRACK_PEAK 0.971283
    INDEX 01 00:00:00
    FILE "09 Stick To Your Guns.flac" WAVE
    TRACK 09 AUDIO
    TITLE "Stick To Your Guns"
    SONGWRITER "Holly Knight/Jon Bon Jovi/Richie Sambora"
    ISRC USPR38800043
    REM REPLAYGAIN_TRACK_GAIN -8.46 dB
    REM REPLAYGAIN_TRACK_PEAK 0.993988
    INDEX 01 00:00:00
    FILE "10 I'll Be There For You.flac" WAVE
    TRACK 10 AUDIO
    TITLE "I'll Be There For You"
    SONGWRITER "Jon Bon Jovi/Richie Sambora"
    ISRC USPR39402229
    REM REPLAYGAIN_TRACK_GAIN -8.36 dB
    REM REPLAYGAIN_TRACK_PEAK 0.993988
    INDEX 01 00:00:00
    FILE "11 99 In The Shade.flac" WAVE
    TRACK 11 AUDIO
    TITLE "99 In The Shade"
    SONGWRITER "Jon Bon Jovi/Richie Sambora"
    ISRC USPR38800045
    REM REPLAYGAIN_TRACK_GAIN -9.03 dB
    REM REPLAYGAIN_TRACK_PEAK 0.993988
    INDEX 01 00:00:00
    FILE "12 Love For Sale.flac" WAVE
    TRACK 12 AUDIO
    TITLE "Love For Sale"
    SONGWRITER "Richie Sambora/Jon Bon Jovi"
    ISRC USPR38800046
    REM REPLAYGAIN_TRACK_GAIN -3.03 dB
    REM REPLAYGAIN_TRACK_PEAK 0.993988
    INDEX 01 00:00:00
    FILE "13 The Boys Are Back In Town.flac" WAVE
    TRACK 13 AUDIO
    TITLE "The Boys Are Back In Town"
    SONGWRITER "Phil Lynott"
    ISRC USPR39402267
    REM REPLAYGAIN_TRACK_GAIN -8.28 dB
    REM REPLAYGAIN_TRACK_PEAK 0.993988
    INDEX 01 00:00:00
    FILE "14 Love Is War.flac" WAVE
    TRACK 14 AUDIO
    TITLE "Love Is War"
    SONGWRITER "Jon Bon Jovi/Richie Sambora"
    ISRC USUM70604137
    REM REPLAYGAIN_TRACK_GAIN -9.53 dB
    REM REPLAYGAIN_TRACK_PEAK 0.993988
    INDEX 01 00:00:00
    FILE "15 Born To Be My Baby [Acoustic Version].flac" WAVE
    TRACK 15 AUDIO
    TITLE "Born To Be My Baby [Acoustic Version]"
    SONGWRITER "Desmond Child/Richie Sambora/Jon Bon Jovi"
    ISRC USUM71406624
    REM REPLAYGAIN_TRACK_GAIN -5.49 dB
    REM REPLAYGAIN_TRACK_PEAK 0.983643
    INDEX 01 00:00:00



    ** Contenuto Nascosto: Schiaccia il bottone RINGRAZIA per visualizzare i link **



    Se ti piacciono i miei post sostienimi abbonandoti o rinnovando un account premium



    ** Contenuto Nascosto: Schiaccia il bottone RINGRAZIA per visualizzare i link **

  2. 7 utenti hanno ringraziato Scene.Man per ci che ha scritto.

    byantony (04.06.2016), dravenbrigadier (13.10.2016), euclide2003 (28.05.2016), Gburasa (19.01.2015), Giulius (08.04.2015), lucioweb (10.10.2016), mongoporno (27.12.2014)

  3. #2
    Status
    Offline
    L'avatar di dandi
    Data Registrazione

    31.07.2012

    Messaggi

    5

    Ha ringraziato
    118 volte
    Ha Ricevuto 0 ringraziamenti in 0 discussioni volte
    Taggato
    0 Post(s)
    Su tusfiles non c' nulla, puoi riuppare? Grazie
  4. #3
    Status
    Offline
    L'avatar di euclide2003
    Data Registrazione

    09.02.2013

    Messaggi

    1

    Ha ringraziato
    55 volte
    Ha Ricevuto 0 ringraziamenti in 0 discussioni volte
    Taggato
    0 Post(s)
    Link inesistenti. Controlla. Grazie mille!!
  5. #4
    Status
    Offline
    L'avatar di bobsax
    Data Registrazione

    19.05.2013

    Messaggi

    1,623

    Ha ringraziato
    0 volte
    Ha Ricevuto 18,179 ringraziamenti in 1,304 discussioni volte
    Taggato
    0 Post(s)
    Citazione Originariamente Scritto da euclide2003 Visualizza Messaggio
    Link inesistenti. Controlla. Grazie mille!!
    upper avvisato.

Permessi di Scrittura

  • Tu non puoi inviare nuove discussioni
  • Tu non puoi inviare risposte
  • Tu non puoi inviare allegati
  • Tu non puoi modificare i tuoi messaggi
  •